#TITLE:SEB 4 U;
#SUBTITLE:;
#ARTIST:SEB All-Stars;
#TITLETRANSLIT:;
#SUBTITLETRANSLIT:;
#ARTISTTRANSLIT:;
#GENRE:;
#CREDIT:;
#BANNER:221.jpg;
#BACKGROUND:;
#LYRICSPATH:;
#CDTITLE:;
#MUSIC:SEB 4 U.mp3;
#OFFSET:-0.033;
#SAMPLESTART:56.920;
#SAMPLELENGTH:18.360;
#SELECTABLE:YES;
#BPMS:0.000=78.000,8.000=39.000,9.000=156.000;
#STOPS:;
#DELAYS:;
#TIMESIGNATURES:0.000=4=4
;
#BGCHANGES:;
#KEYSOUNDS:;
#ATTACKS:;
// cache tags:
#FIRSTBEAT:9.000;
#LASTBEAT:199.000;
#SONGFILENAME:/Songs/ParaPara/SEB 4 U/SEB 4 U.sm;
#HASMUSIC:1;
#HASBANNER:1;
#MUSICLENGTH:88.241;
// end cache tags

//---------------para-single - Blank----------------
#NOTES:
     para-single:
     Blank:
     Beginner:
     4:
     0.267,0.282,0.079,0.419,0.006,121.000,7.000,37.000,0.000,0.000,0.000,0.000,-1.000,-1.000,0.267,0.282,0.079,0.419,0.006,121.000,7.000,37.000,0.000,0.000,0.000,0.000,-1.000,-1.000:
00000
00000
00000
00000
,
00000
00000
00000
00000
,
00000
00002
00003
20000
,
30000
01000
00100
00010
,
00000
20000
30000
00002
,
00003
00010
00100
01000
,
00000
00002
00003
20000
,
30000
01000
00100
00010
,
00000
20000
30000
00002
,
00003
00010
00100
01000
,
00000
00000
00010
00000
01000
00000
01000
00100
,
00010
00000
01000
00000
00010
00000
00010
00100
,
01000
00020
00000
02000
,
00000
03030
00100
00000
00000
00000
00100
00000
,
00100
00000
00010
00000
01000
00000
01000
00100
,
00010
00000
01000
00000
00010
00000
00010
00100
,
01000
00020
00000
02000
,
00000
03030
00100
00000
00000
00000
00100
00000
,
00100
00020
00030
00000
,
00000
02000
03000
00000
,
00000
02020
03030
00000
,
00000
02020
03030
00000
,
00000
01000
00100
00010
,
00010
00010
00100
01000
,
01000
00200
00000
00000
,
00300
00100
00100
01010
,
00000
00020
02000
03030
,
00000
00000
00000
10001
00000
00000
00000
00000
,
00000
00100
00200
00300
,
00100
00000
00000
00000
00000
01000
10000
00000
00000
00000
00000
00000
00000
00000
00000
00000
00000
00000
00200
00000
00000
00000
00000
00000
,
00300
01000
00010
00000
,
00010
00010
01000
00000
,
01000
00020
00000
02000
,
03030
00001
10000
00001
,
10000
00020
02000
03030
,
00000
00000
00000
10001
00000
00000
00000
00000
,
00000
00100
00010
00000
00100
00000
02000
00000
,
03000
01010
01010
00000
,
00000
01000
00010
00000
,
00010
00010
01000
00000
,
01000
00020
00000
02000
,
03030
00000
00000
00000
00000
10000
00000
00000
,
00000
00002
00000
00000
,
00000
00000
00000
00000
,
00003
20000
30000
00002
,
00003
00010
00100
01000
,
00000
00002
00003
20000
,
30000
01000
00100
00010
,
00000
20000
30000
00002
,
00003
00010
00100
01000
;

//---------------para-single - Blank----------------
#NOTES:
     para-single:
     Blank:
     Edit:
     4:
     0.267,0.282,0.079,0.419,0.006,121.000,7.000,37.000,0.000,0.000,0.000,0.000,-1.000,-1.000,0.267,0.282,0.079,0.419,0.006,121.000,7.000,37.000,0.000,0.000,0.000,0.000,-1.000,-1.000:
00000
00000
00000
00000
,
00000
00000
00000
00000
,
00000
00002
00003
20000
,
30000
01000
00100
00010
,
00000
20000
30000
00002
,
00003
00010
00100
01000
,
00000
00002
00003
20000
,
30000
01000
00100
00010
,
00000
20000
30000
00002
,
00003
00010
00100
01000
,
00000
00000
00010
00000
01000
00000
01000
00100
,
00010
00000
01000
00000
00010
00000
00010
00100
,
01000
00020
00000
02000
,
00000
03030
00100
00000
00000
00000
00100
00000
,
00100
00000
00010
00000
01000
00000
01000
00100
,
00010
00000
01000
00000
00010
00000
00010
00100
,
01000
00020
00000
02000
,
00000
03030
00100
00000
00000
00000
00100
00000
,
00100
00020
00030
00000
,
00000
02000
03000
00000
,
00000
02020
03030
00000
,
00000
02020
03030
00000
,
00000
01000
00100
00010
,
00010
00010
00100
01000
,
01000
00200
00000
00000
,
00300
00100
00100
01010
,
00000
00020
02000
03030
,
00000
00000
00000
10001
00000
00000
00000
00000
,
00000
00100
00200
00300
,
00100
00000
00000
00000
00000
01000
10000
00000
00000
00000
00000
00000
00000
00000
00000
00000
00000
00000
00200
00000
00000
00000
00000
00000
,
00300
01000
00010
00000
,
00010
00010
01000
00000
,
01000
00020
00000
02000
,
03030
00001
10000
00001
,
10000
00020
02000
03030
,
00000
00000
00000
10001
00000
00000
00000
00000
,
00000
00100
00010
00000
00100
00000
02000
00000
,
03000
01010
01010
00000
,
00000
01000
00010
00000
,
00010
00010
01000
00000
,
01000
00020
00000
02000
,
03030
00000
00000
00000
00000
10000
00000
00000
,
00000
00002
00000
00000
,
00000
00000
00000
00000
,
00003
20000
30000
00002
,
00003
00010
00100
01000
,
00000
00002
00003
20000
,
30000
01000
00100
00010
,
00000
20000
30000
00002
,
00003
00010
00100
01000
;
